Page 2 of 2 FirstFirst 12
Results 11 to 13 of 13

Thread: Wowza 2 can't save file to mp4!

  1. #11
    Join Date
    Dec 2007
    Posts
    28,412

    Default

    Wowza is not doing any transcoding in this case, it is just recording the stream. Wowza does put the moov atom at the end of the file which might be a problem for some uses, especially progressive download, and possibly video editing tools. You should be able to stream the file in Wowza vod application.

    Richard

  2. #12

    Default

    Quote Originally Posted by rrlanham View Post
    It's not clear if writing Speex to mp4 container is supported at present. We are investigating. Meanwhile try saving to .flv first, then transcoding to h.264/aac in a mp4 container.

    Richard
    With according to changelog of 3.5.2: "Added speex audio support to mp4 containers so speex audio can be recorded to and streamed from mp4 files."
    Speex is now support with MP4 container. Do you have any plan to incorporate the patch to Wowza 2.2.4?

    It's only meta-data injection

    Code:
    * *Stream #0:0(eng): Video: h264 (Baseline) (avc1 / 0x31637661), yuv420p, 640x480 [SAR 1:1 DAR 4:3], 197 kb/s, 19.77 fps, 20 tbr, 90k tbn, 40 tbc
     * *Metadata:
     * * *creation_time * : 2013-02-18 13:53:41
     * * *handler_name * *: WowzaMediaServerPro
     * *Stream #0:1(eng): Audio: speex (spex / 0x78657073), 16000 Hz, mono, s16, 38 kb/s
     * *Metadata:
     * * *creation_time * : 2013-02-18 13:53:41
     * * *handler_name * *: WowzaMediaServerPro
     *Metadata:
     * *major_brand * * : f4v 
     * *minor_version * : 0
     * *compatible_brands: isommp42m4v 
     * *encoder * * * * : Lavf54.59.106
    It would be great to have a patch to Wowza 2.2.4 please.
    Last edited by mikhailov; 02-18-2013 at 09:42 AM.

  3. #13
    Join Date
    Dec 2007
    Posts
    28,412

    Default

    No, sorry, new features are not added to old versions of Wowza. You can still upgrade to Wowza 3 (3.5.2 at present) for free from Wowza 2.

    http://www.wowza.com/forums/content....-Upgrade-Guide

    Richard

Page 2 of 2 FirstFirst 12

Tags for this Thread

Posting Permissions

  • You may not post new threads
  • You may not post replies
  • You may not post attachments
  • You may not edit your posts
  •