Page 2 of 2 FirstFirst 12
Results 11 to 14 of 14

Thread: Invalid flv when recording

  1. #11

    Default

    Hi Richard, I am trying to record an H264 flv from a webcam. On finishing recording, the resulting flv differs from Wowza 3.5.1 to Wowza 3.6.4.

    With Wowza 3.5.1, ffprobe reports on the flv:
      Duration: 00:00:10.01, start: 0.000000, bitrate: N/A
        Stream #0.0: Video: h264 (Baseline), yuv420p, 480x270 [PAR 1:1 DAR 16:9], 25 tbr, 1k tbn, 50 tbc
        Stream #0.1: Audio: nellymoser, 22050 Hz, mono, s16
    With Wowza 3.6.4, ffprobe reports on the flv:
      Duration: 00:00:15.46, start: 5.734000, bitrate: 148 kb/s
        Stream #0:0: Video: h264 (Baseline), yuv420p(tv), 480x270 [SAR 1:1 DAR 16:9], 25 tbr, 1k tbn, 50 tbc
        Stream #0:1: Audio: nellymoser, 22050 Hz, mono, flt
    In the latter case, VLC picks up a duration of 15s, but plays for 10s and then skips the remaining time.

    Let me know if you need anything else.

    Thanks
    Leon

  2. #12

    Default

    I am seeing similar issues. This is a big blocker for us and wondering if there is a fix ready for this?

  3. #13

    Default

    The latest development build here should fix it (or any version greater or equal to 3.6.4.02):

    http://www.wowza.com/forums/content....lopment-Builds

    Charlie

  4. #14

    Default

    When can we expect the next production build? Will give this is a shot.

Page 2 of 2 FirstFirst 12

Posting Permissions

  • You may not post new threads
  • You may not post replies
  • You may not post attachments
  • You may not edit your posts
  •