Results 1 to 10 of 10

Thread: RTMPStreamPlayer returns stream not opened

Threaded View

Previous Post Previous Post   Next Post Next Post
  1. #1

    Default RTMPStreamPlayer returns stream not opened

    Hello Wowza,

    I am working with an application which would be play or stream an video through RTMP protocol using Wowza Media server. I am able to stream a video from device to wowza server using MediaLibDemos Everything is fine while streaming a video.

    But, while playing a video from Wowza media server i am unable to play that video. It prints below log,

    2014-08-04 16:31:36.585 RTMPStreamPlayer[3841:60b] ******************************************** connectControl: host = rtmp://58.68.93.211:1935/coder/
    2014-08-04 16:31:36.589 RTMPStreamPlayer[3841:4a03] MPMediaDecoder -> playing: try to open the stream rtmp://58.68.93.211:1935/coder//Mobile27 ...
    2014-08-04 16:31:36.591 RTMPStreamPlayer[3841:4a03] @@@@@@@@@@@@@@@@@@>>>> MPMediaDecoder -> openStream: (BEGIN)
    [flv @ 0x13f4a00] Stream discovered after head already parsed
    [flv @ 0x13f4a00] negative cts, previous timestamps might be wrong
    [flv @ 0x13f4a00] negative cts, previous timestamps might be wrong
    [flv @ 0x13f4a00] negative cts, previous timestamps might be wrong
    [flv @ 0x13f4a00] negative cts, previous timestamps might be wrong
    [flv @ 0x13f4a00] negative cts, previous timestamps might be wrong
    [flv @ 0x13f4a00] negative cts, previous timestamps might be wrong
    [flv @ 0x13f4a00] negative cts, previous timestamps might be wrong
    [flv @ 0x13f4a00] negative cts, previous timestamps might be wrong
    [flv @ 0x13f4a00] negative cts, previous timestamps might be wrong
    [flv @ 0x13f4a00] negative cts, previous timestamps might be wrong
    [flv @ 0x13f4a00] negative cts, previous timestamps might be wrong
    [flv @ 0x13f4a00] negative cts, previous timestamps might be wrong
    [flv @ 0x13f4a00] negative cts, previous timestamps might be wrong
    [flv @ 0x13f4a00] negative cts, previous timestamps might be wrong
    [h264 @ 0xc02200] AVC: nal size 21102622
    [h264 @ 0xc02200] missing picture in access unit with size 40
    [h264 @ 0xc02200] AVC: nal size 21102622
    [h264 @ 0xc02200] missing picture in access unit with size 40
    [h264 @ 0xc02200] AVC: nal size 21102622
    [h264 @ 0xc02200] missing picture in access unit with size 40
    [h264 @ 0xc02200] AVC: nal size 21102622
    [h264 @ 0xc02200] missing picture in access unit with size 40
    [h264 @ 0xc02200] AVC: nal size 21102622
    [h264 @ 0xc02200] missing picture in access unit with size 40
    [h264 @ 0xc02200] AVC: nal size 21102622
    [h264 @ 0xc02200] missing picture in access unit with size 40
    [h264 @ 0xc02200] AVC: nal size 21102622
    [h264 @ 0xc02200] missing picture in access unit with size 40
    [flv @ 0x13f4a00] Could not find codec parameters for stream 1 (Audio: none, 0 channels): unspecified sample format
    Consider increasing the value for the 'analyzeduration' and 'probesize' options
    ----------------------------------- FORMAT --------------------------------------------------
    Input #0, flv, from 'rtmp://58.68.93.211:1935/coder//Mobile27':
      Duration: N/A, start: 0.000000, bitrate: N/A
        Stream #0:0: Video: h264 (Baseline), yuv420p(tv), 320x240 [SAR 1:1 DAR 4:3], 24.42 fps, 24 tbr, 1k tbn, 48 tbc
        Stream #0:1: Audio: none, 0 channels
        Stream #0:2: Data: none
    ---------------------------------------------------------------------------------------------
    [NULL @ 0xc09600] No codec provided to avcodec_open2()
    2014-08-04 16:31:39.785 RTMPStreamPlayer[3841:4a03] MPMediaDecoder -> ERROR avcodec_open2() <audio> : Invalid argument
    2014-08-04 16:31:39.786 RTMPStreamPlayer[3841:4a03] MPMediaDecoder -> playing: stream is not opened, wait about 1 sec
    2014-08-04 16:31:40.349 RTMPStreamPlayer[3841:60b] ******************************************** connectControl: host = rtmp://58.68.93.211:1935/coder/
    2014-08-04 16:31:40.856 RTMPStreamPlayer[3841:4a03] MPMediaDecoder -> playing: try to open the stream (null) ...
    2014-08-04 16:31:40.858 RTMPStreamPlayer[3841:4a03] @@@@@@@@@@@@@@@@@@>>>> MPMediaDecoder -> openStream: (BEGIN)
    2014-08-04 16:31:40.860 RTMPStreamPlayer[3841:4a03] MPMediaDecoder -> ERROR avformat_open_input() : Protocol not found
    2014-08-04 16:31:40.861 RTMPStreamPlayer[3841:4a03] DEALLOC MPMediaDecoder
    But, the streaming video plays fine through FlashRTMPPlayer How to fix this? Any help appreciated.

    Thanks in Advance.
    Last edited by praveenkchimera; 08-06-2014 at 11:51 PM. Reason: Mentioned exact log

Posting Permissions

  • You may not post new threads
  • You may not post replies
  • You may not post attachments
  • You may not edit your posts
  •