Results 1 to 5 of 5

Thread: does wowza support mp4v video?

Hybrid View

Previous Post Previous Post   Next Post Next Post
  1. #1
    Join Date
    Jul 2014
    Posts
    4

    Default does wowza support mp4v video?

    I put a mp4 file in content folder for vod, but no video displayed (audio has no problem, and the audio and video of sample.mp4 have no problem). Here is the video and audio information of the file (by ffmpeg):

    ...
    Stream #0:0(und): Video: mpeg4 (Simple Profile) (mp4v / 0x7634706D), yuv420p, 720x480 [SAR 1:1 DAR 3:2], 1444 kb/s, 29.98 fps, 29.98 tbr, 3747 tbn, 29.98 tbc (default)
    Metadata:
    ...
    Stream #0:1(und): Audio: aac (mp4a / 0x6134706D), 11025 Hz, stereo, fltp, 37 kb/s (default)
    ...

    Does wowza not support mp4v format, or I did something wrong? Thanks.

  2. #2

    Default

    Hi there, it looks like you are using video codec, mpeg-2(simple profile) which is not support.

    Wowza supports:
    H.264
    MPEG-4 Part 10
    MPEG-4 AVC
    ISO/IEC 14496-10

    Which are just are different ways of saying H.264.

    Salvadore

  3. #3
    Join Date
    Jul 2014
    Posts
    4

    Default

    Thanks a lot for your reply, Salvadore. Do you mean mpeg4 (simple profile) is not supported by wowza? or mpeg4 (Simple Profile) (mp4v / 0x7634706D) just means mpeg-2(simple profile)?

    http://www.wowza.com/forums/content....supportedMedia says that wowza support mp4v, but I don't know why it failed in my case. My wowza version is 4.0.3.

    Thanks,

    philio

  4. #4

    Default

    That's right, Wowza supports the mp4v file container, but it needs to have h.264 video codec.

    Salvadore

  5. #5
    Join Date
    Jul 2014
    Posts
    4

    Default

    thanks a lot, I thought mp4v is video codec instead of file container

Similar Threads

  1. Replies: 1
    Last Post: 05-13-2014, 06:33 AM

Posting Permissions

  • You may not post new threads
  • You may not post replies
  • You may not post attachments
  • You may not edit your posts
  •